Peter Parker regresa en Spider-Man: Lejos de Casa, la secuela de Spider-Man: Homecoming. Nuestro Superhéroe amigo y vecino decide unirse a sus mejores amigos Ned, MJ y al resto de la pandilla en unas vacaciones por Europa. Sin embargo, los planes de Peter de dejar sus heroicidades atrás, durante unas semanas, acaban arruinados rápidamente cuando a regañadientes acepta ayudar a Nick Fury a resolver los misteriosos ataques de criaturas elementales, que están creando el caos por todo el continente.

Título Original: Spider-Man: Far from Home

Lanzamiento: Julio de 2019

País: USA

Duración: 129 minutos

Género: Acción, Aventura, Sci-Fi

Director: Jon Watts

Escritores: Chris McKenna, Erik Sommers

Producción: Marvel Studios, Sony Pictures

Protagonistas: Tom Holland, Samuel L. Jackson, Jake Gyllenhaal, Zendaya,

Cobie Smulders, Jon Favreau, J. B. Smoove, Jacob Batalon, Martin Starr, Tony Revolori, Marisa Tomei

Tamaño total del archivo: 4.64 GB

Formato de archivo: Matroska (.mkv)

Formato de video: AVC [email protected] (4503 kb/s)

Resolución: 1920 × 796 px

Audio 1: AC-3 2.0 256 kb/s – Español Latino

Audio 2: AC-3 5.1 384 kb/s – Inglés

Subtitulos: Español + Inglés

Comprimido con Winrar 5.50

MediaInfo

Format : Matroska
Format version : Version 4
File size : 4.65 GiB
Duration : 2 h 9 min
Overall bit rate : 5 145 kb/s
Movie name : SPIDER-MAN: LEJOS DE CASA 2019 LATINO HD 1080P
Encoded date : UTC 2019-09-17 16:51:50
Writing application : mkvmerge v37.0.0 (‘Leave It’) 64-bit
Writing library : libebml v1.3.9 + libmatroska v1.5.2

Video
ID : 1
Format : AVC
Format/Info : Advanced Video Codec
Format profile : [email protected]
Format settings : CABAC / 5 Ref Frames
Format settings, CABAC : Yes
Format settings, RefFrames : 5 frames
Codec ID : V_MPEG4/ISO/AVC
Duration : 2 h 9 min
Bit rate : 4 503 kb/s
Width : 1 920 pixels
Height : 796 pixels
Display aspect ratio : 2.40:1
Frame rate mode : Constant
Frame rate : 23.976 (24000/1001) FPS
Color space : YUV
Chroma subsampling : 4:2:0
Bit depth : 8 bits
Scan type : Progressive
Bits/(Pixel*Frame) : 0.123
Stream size : 4.07 GiB (88%)
Language : English
Default : Yes
Forced : No
Color range : Limited
Color primaries : BT.709
Transfer characteristics : BT.709
Matrix coefficients : BT.709

Audio #1
ID : 2
Format : AC-3
Format/Info : Audio Coding 3
Commercial name : Dolby Digital
Codec ID : A_AC3
Duration : 2 h 9 min
Bit rate mode : Constant
Bit rate : 256 kb/s
Channel(s) : 2 channels
Channel layout : L R
Sampling rate : 48.0 kHz
Frame rate : 31.250 FPS (1536 SPF)
Bit depth : 16 bits
Compression mode : Lossy
Delay relative to video : -42 ms
Stream size : 237 MiB (5%)
Language : Spanish
Service kind : Complete Main
Default : Yes
Forced : No

Audio #2
ID : 3
Format : AC-3
Format/Info : Audio Coding 3
Commercial name : Dolby Digital
Codec ID : A_AC3
Duration : 2 h 9 min
Bit rate mode : Constant
Bit rate : 384 kb/s
Channel(s) : 6 channels
Channel layout : L R C LFE Ls Rs
Sampling rate : 48.0 kHz
Frame rate : 31.250 FPS (1536 SPF)
Bit depth : 16 bits
Compression mode : Lossy
Delay relative to video : -42 ms
Stream size : 355 MiB (7%)
Language : English
Service kind : Complete Main
Default : No
Forced : No

Text #1
ID : 4
Format : UTF-8
Codec ID : S_TEXT/UTF8
Codec ID/Info : UTF-8 Plain Text
Duration : 2 h 8 min
Bit rate : 0 b/s
Count of elements : 12
Stream size : 376 Bytes (0%)
Language : Spanish
Default : Yes
Forced : No

Text #2
ID : 5
Format : UTF-8
Codec ID : S_TEXT/UTF8
Codec ID/Info : UTF-8 Plain Text
Duration : 2 h 8 min
Bit rate : 61 b/s
Count of elements : 1719
Stream size : 57.9 KiB (0%)
Language : Spanish
Default : No
Forced : No

vekin

Divido en 11 partes (10 de 465 MB + 1 de 110 MB)

earn4files.com/sw36umv3nmjb

earn4files.com/zy5iwrzxsdl9

earn4files.com/86ijjyqc9dl7

earn4files.com/eyo2q6epcw2r

earn4files.com/0gvd0vu36id9

earn4files.com/ce8l4179jacs

earn4files.com/yb5nyg3x39e1

earn4files.com/yquut3b6tb9e

earn4files.com/poj9138v2gic

earn4files.com/3qhgew3v5asm

earn4files.com/rxgx7rtxwiei

katfile.com/5qdkwzmvuzo0/SpdrmnLDCS2019M1080.part01.rar.html

katfile.com/ybgiqu78mdpa/SpdrmnLDCS2019M1080.part02.rar.html

katfile.com/ygyduafkc0yd/SpdrmnLDCS2019M1080.part03.rar.html

katfile.com/oki8rzdd301r/SpdrmnLDCS2019M1080.part04.rar.html

katfile.com/s2ooy9slz27t/SpdrmnLDCS2019M1080.part05.rar.html

katfile.com/nwpb9pbx1aa2/SpdrmnLDCS2019M1080.part06.rar.html

katfile.com/qybqy1s6xdd8/SpdrmnLDCS2019M1080.part07.rar.html

katfile.com/xpb04zheoarb/SpdrmnLDCS2019M1080.part08.rar.html

katfile.com/iul2mu3kicfl/SpdrmnLDCS2019M1080.part09.rar.html

katfile.com/r3eme70049dx/SpdrmnLDCS2019M1080.part10.rar.html

katfile.com/g1pww1ecif9r/SpdrmnLDCS2019M1080.part11.rar.html